Revolver Rani (2014) - 720p - Blu-Ray - MP4 - x264 - AC3 - 5.1 - ...

  • Category Movies
  • Type h.264/x264
  • Language Hindi
  • Total size 1,016.4 MB
  • Uploaded By studio
  • Downloads 512
  • Last checked 8 months ago
  • Date uploaded 4 years ago
  • Seeders 0
  • Leechers 0

Revolver Rani

ActionComedyCrime

Chambal: the land of rebels, politicians, bullets and blood. In this hostile territory, you either live by the gun…or die by the gun. Revolver Rani is a satirical and unusual love story set against the back drop of politics.

Infohash : 6E2B703B480B38EA8919EAEE52B9E39EAE4C6AD5









Quote:


General
Unique ID : 199887056965854891991057922076217180013 (0x9660D8CB3365C9798EC2FF96BA8FFF6D)
Complete name : Revolver Rani (2014) - 720p - Blu-Ray - MP4 - x264 - AC3 - 5.1 - [Team TNT ExClusive] .MP4
Format : Matroska
Format version : Version 4 / Version 2
File size : 1 010 MiB
Duration : 2h 11mn
Overall bit rate : 1 077 Kbps
Movie name : Revolver Rani (2014) - 720p - Blu-Ray - MP4 - x264 - AC3 - 5.1 - [Team TNT ExClusive]
Encoded date : UTC 2014-07-09 18:17:54
Writing application : mkvmerge v6.9.1 ('Blue Panther') 32bit built on Apr 18 2014 18:15:44
Writing library : libebml v1.3.0 + libmatroska v1.4.1


Video
ID : 1
Format : AVC
Format/Info : Advanced Video Codec
Format profile : [email protected]
Format settings, CABAC : Yes
Format settings, ReFrames : 4 frames
Codec ID : V_MPEG4/ISO/AVC
Duration : 2h 11mn
Bit rate : 851 Kbps
Width : 1 280 pixels
Height : 544 pixels
Display aspect ratio : 2.35:1
Frame rate mode : Constant
Frame rate : 24.000 fps
Color space : YUV
Chroma subsampling : 4:2:0
Bit depth : 8 bits
Scan type : Progressive
Bits/(Pixel*Frame) : 0.051
Stream size : 780 MiB (77%)
Title : TNTAdmirer
Language : Hindi
Default : Yes
Forced : No


Audio
ID : 2
Format : AC-3
Format/Info : Audio Coding 3
Mode extension : CM (complete main)
Format settings, Endianness : Big
Codec ID : A_AC3
Duration : 2h 11mn
Bit rate mode : Constant
Bit rate : 224 Kbps
Channel(s) : 6 channels
Channel positions : Front: L C R, Side: L R, LFE
Sampling rate : 48.0 KHz
Bit depth : 16 bits
Compression mode : Lossy
Stream size : 210 MiB (21%)
Title : TNTAdmirer
Language : Hindi
Default : Yes
Forced : No




[SIZE="7"][COLOR="Blue"]SCREENSHOTS [/COLOR][/SIZE]






























[SIZE="7"][COLOR="Red"]

Source Own BluRay @Team TNT

[/COLOR][/SIZE]

Files:

  • Revolver Rani (2014) - 720p - Blu-Ray - MP4 - x264 - AC3 - 5.1 - [Team TNT ExClusive] .MP4 (1,010.1 MB)
  • SaMple-Revolver Rani (2014) - 720p - Blu-Ray - MP4 - x264 - AC3 - 5.1 - [Team TNT ExClusive] .MP4 (6.3 MB)
  • Torrent Downloaded From ExtraTorrent.cc.txt (0.4 KB)
  • Torrent Downloaded from www.bollytnt.co.txt (0.0 KB)

There are currently no comments. Feel free to leave one :)

Code:

  • http://torrent.gresille.org/announce
  • http://bttracker.crunchbanglinux.org:6969/announce
  • http://tracker.aletorrenty.pl:2710/announce
  • http://exodus.desync.com:6969/announce
  • udp://exodus.desync.com:6969/announce
  • udp://open.demonii.com:1337/announce
  • udp://9.rarbg.com:2710/announce
  • http://94.228.192.98/announce
  • udp://tracker.openbittorrent.com:80/announce
  • udp://coppersurfer.tk:6969/announce
  • udp://11.rarbg.me:80/announce
SitemapAtomic Betty (79) | WPS Office - Word, Docs, PDF, Note, Slide Sheet | Lady Tiger (2019) HDRip Telugu (HQ Line Audio) Watch Online And Download 500MB Dukhtar Pakistani | Burnout: Dominator (2007/PS2/RUS) | tiger lotus red nenuphar nymphea lotus rouge tigré demaré plante aquarium discus