MyDadsHotGirlfriend - Brooklyn Chase, Johnny Castle (480p) ***NEW...

  • Category XXX
  • Type Video
  • Language English
  • Total size 586.5 MB
  • Uploaded By gemini527nj1
  • Downloads 134
  • Last checked 2 days ago
  • Date uploaded 4 years ago
  • Seeders 0
  • Leechers 0

Infohash : FECA35451EA6EA61175292A265EC8E525BF41433







Screenshots


http://imgserve.net/img-53bc908a4024a.html

Description/Synopsis


Johnny's practicing blackjack because his dad say he needs to get a job but, he isn't that good at it yet. His dad's girlfriend Brooklyn comes into the room because she's bored and wants Johnny to teach her. Johnny is surprised Brooklyn isn't out shopping like she usually is and he finds out that his dad took her credit cards because he just bought her new boobs. She's slightly upset that his dad has not wanted to even put his dick in her since she has gotten her boobs. She shows Johnny her new boobs and now that he has seen hers, she wants to see his.

Starring: Brooklyn Chase, Johnny Castle
Released: July 08, 2014
Studio/Website: NaughtyAmerica/MyDadsHotGirlfriend
Genre/Tags: 69, American, Ass licking, Ass Smacking, Ball Licking, Big Ass, Big Fake Tits, Big Tits, Blowjob, Brown Eyes, Brunette, Caucasian, Cum on Tits, Deepthroating, Fake Tits

MediaInfo



General


Format : MPEG-4
Format profile : Base Media
Codec ID : isom
File size : 587 MiB
Duration : 30mn 6s
Overall bit rate mode : Variable
Overall bit rate : 2724 Kbps
Writing application : Lavf54.29.104

Video


ID : 1
Format : AVC
Format/Info : Advanced Video Codec
Format profile : [email protected]
Format settings, CABAC : Yes
Format settings, ReFrames : 4 frames
Codec ID : avc1
Codec ID/Info : Advanced Video Coding
Duration : 30mn 5s
Bit rate : 2601 Kbps
Width : 854 pixels
Height : 480 pixels
Display aspect ratio : 16:9
Frame rate mode : Constant
Frame rate : 24.000 fps
Color space : YUV
Chroma subsampling : 4:2:0
Bit depth : 8 bits
Scan type : Progressive
Bits/(Pixel*Frame) : 0.264
Stream size : 562 MiB (96%)
Writing library : x264 core 136
Encoding settings : cabac=1 / ref=4 / deblock=1:0:0 / analyse=0x3:0x113 / me=umh / subme=7 / psy=1 / psy_rd=0.00:0.00 / mixed_ref=1 / me_range=16 / chroma_me=1 / trellis=1 / 8x8dct=1 / cqm=0 / deadzone=21,11 / fast_pskip=0 / chroma_qp_offset=0 / threads=48 / lookahead_threads=3 / sliced_threads=0 / nr=0 / decimate=1 / interlaced=0 / bluray_compat=0 / constrained_intra=0 / bframes=16 / b_pyramid=2 / b_adapt=1 / b_bias=0 / direct=1 / weightb=1 / open_gop=0 / weightp=2 / keyint=300 / keyint_min=25 / scenecut=40 / intra_refresh=0 / rc_lookahead=40 / rc=2pass / mbtree=1 / bitrate=2601 / ratetol=1.0 / qcomp=0.50 / qpmin=8 / qpmax=51 / qpstep=4 / cplxblur=20.0 / qblur=0.5 / ip_ratio=1.41 / aq=1:1.00
Language : English

Audio


ID : 2
Format : AAC
Format/Info : Advanced Audio Codec
Format profile : LC
Codec ID : 40
Duration : 30mn 6s
Bit rate mode : Variable
Bit rate : 107 Kbps
Maximum bit rate : 128 Kbps
Channel(s) : 2 channels
Channel positions : Front: L R
Sampling rate : 44.1 KHz
Compression mode : Lossy
Stream size : 23.1 MiB (4%)
Language : English

Files:

  • MyDadsHotGirlfriend - Brooklyn Chase, Johnny Castle (480p).mp4 (586.5 MB)

There are currently no comments. Feel free to leave one :)

Code:

  • udp://tracker.openbittorrent.com:80/announce
  • udp://tracker.publicbt.com:80/announce
  • udp://tracker.istole.it:80/announce
  • http://pornleech.com:2710/announce
  • udp://pornleech.com:2710/announce
  • http://pornleech.ru:2710/announce
  • udp://pornleech.ru:2710/announce
  • http://pornleech.me:2710/announce
  • udp://pornleech.me:2710/announce
  • udp://9.rarbg.com:2710/announce
  • udp://9.rarbg.me:2710/announce
  • udp://10.rarbg.com/announce
  • udp://10.rarbg.me/announce
  • udp://open.demonii.com:1337/announce
  • http://anisaishuu.de:2710/announce
SitemapThe Flash | Apple iPod Touch 5th Generation 16GB, 32GB, 64GB,$109.99 13d left | 01.07 Diablero.S01.SPANISH.1080p.NF.WEB.DDP5.1.x264-DEFLATE 무자막 Dolly Little | Milk Crown H | I Am Not Your Negro (2017)