Bull Durham 1988 DvDrip XviD AC3 5.1 greenbud1969

  • Category Movies
  • Type Divx/Xvid
  • Language English
  • Total size 1.4 GB
  • Uploaded By greenbud1969
  • Downloads 123
  • Last checked 1 day ago
  • Date uploaded 4 years ago
  • Seeders 0
  • Leechers 0

Bull Durham

ComedySportRomance

Veteran catcher Crash Davis is brought to the minor league Durham Bulls to help their up and coming pitching prospect, "Nuke" Laloosh. Their relationship gets off to a rocky start and is further complicated when baseball groupie Annie Savoy sets her sights on the two men.

Infohash : 18160CF946CB88D1ACD3687E6521C490A0C7B256




IMDb Link: http://www.imdb.com/title/tt0094812/





Two of America's favorite pastimes - baseball and sex-team up in this winning comedy. Set in the bedrooms and ballfields of a minor league town, this love triangle leads off with Crash Davis (Costner), a seasoned catcher whose best years on the ballfield are behind him...but whose finest moments in the bedroom still lie ahead. Crash is assigned to prepare a cocky young pitcher, "Nuke" LaLoosh (Robbins), for the majors. But the team's unofficial trainer and handler Annie Savoy (Sarandon) intervenes, stating "There's never been a ballplayer who slept with me who didn't have the best year of his career."


General
Complete name : Bull Durham 1988 DvDrip XviD AC3 5.1 greenbud1969
Format : AVI
Format/Info : Audio Video Interleave
File size : 1.37 GiB
Duration : 1h 47mn
Overall bit rate : 1 814 Kbps
Writing application : VirtualDubMod 1.5.4.1 (build 2178/release)
Writing library : VirtualDubMod build 2178/release

Video
ID : 0
Format : MPEG-4 Visual
Format profile : Advanced [email protected]
Format settings, BVOP : 1
Format settings, QPel : No
Format settings, GMC : No warppoints
Format settings, Matrix : Custom
Codec ID : XVID
Codec ID/Hint : XviD
Duration : 1h 47mn
Bit rate : 1 360 Kbps
Width : 720 pixels
Height : 400 pixels
Display aspect ratio : 16:9
Frame rate : 23.976 fps
Color space : YUV
Chroma subsampling : 4:2:0
Bit depth : 8 bits
Scan type : Progressive
Compression mode : Lossy
Bits/(Pixel*Frame) : 0.197
Stream size : 1.02 GiB (75%)
Writing library : XviD 64

Audio
ID : 1
Format : AC-3
Format/Info : Audio Coding 3
Mode extension : CM (complete main)
Format settings, Endianness : Big
Codec ID : 2000
Duration : 1h 47mn
Bit rate mode : Constant
Bit rate : 448 Kbps
Channel(s) : 6 channels
Channel positions : Front: L C R, Side: L R, LFE
Sampling rate : 48.0 KHz
Bit depth : 16 bits
Compression mode : Lossy
Stream size : 346 MiB (25%)
Alignment : Split accross interleaves
Interleave, duration : 96 ms (2.30 video frames)
Interleave, preload duration : 96 ms
Language : English













If your want to convert this movie or any of my other releases I recommend using ConvertXtoDVD or you can burn as a data disc with any programs such as CyberLink Power2Go, Roxio or Nero


All stand-alone divx players compatible


Sample & Optional English .srt Included









Blackjesus, Hive-CM8, ViP3R, THC, SANTi, CRYS, TODE, ViCKY, AQOS, EVO, playXD, LRT, FUM, AFG and respect to all pirate groups and encoders past and present. Sharing is caring.









Files:

  • sample- Bull Durham.avi (27.3 MB)
  • Bull Durham 1988 [EngSubs]-greenbud1969.srt (102.3 KB)
  • Bull Durham 1988 DvDrip XviD AC3 5.1 greenbud1969.avi (1.4 GB)

There are currently no comments. Feel free to leave one :)

Code:

  • http://exodus.desync.com/announce
  • http://exodus.desync.com:6969/announce
  • udp://open.demonii.com:1337/announce
  • udp://9.rarbg.com:2710/announce
  • udp://tracker.istole.it:80
  • udp://tracker.openbittorrent.com:80/announce
SitemapV88 Android 6.0 Smart TV BOX 4K Latest RK3229 Quad Core 8GB HD 1080P WIFI Media$25.99 7d left | S03E03: Escorpion and the Red Hand | Assistir O Mundo Sombrio de Sabrina Dublado Online Watch Movie | Coles Little Shop Mini Collectibles Cheap Limited Time Only Kids New 1 minis | Твист "Каскад"