Ida.2014.DVDRip.720p.x264.AC3.[Dual Audio].[Polish + Español Cast...

  • Category Movies
  • Type HD
  • Language Spanish
  • Total size 1.4 GB
  • Uploaded By URBiN4HD
  • Downloads 260
  • Last checked 20 hours ago
  • Date uploaded 4 years ago
  • Seeders 0
  • Leechers 1

Ida

Drama

Poland, 1962. Anna is a novice, an orphan brought up by nuns in a convent. Before she takes her vows, she is determined to see Wanda, her only living relative. Wanda tells Anna that Anna is Jewish. Both women embark on a journey not only to discover their tragic family story, but who they really are and where they belong, questioning their religions and beliefs.

Infohash : B2C7809D33222E0CF52A3BF5643888021E9FBA54




Anna, a young novitiate nun in 1960s Poland, is on the verge of taking her vows when she discovers a dark family secret dating back to the years of the Nazi occupation.


--------------------------------------------------------------


Años 60, Polonia. Una joven ilusionada con la búsqueda de la fé y la religión, esta a punto de tomar sus votos y convertirse en monja, aquello que siempre ha deseado. Se ha preparado duramente durante largos años y convertida en una novicia modelo decide entregarse totalmente a su religión. Todo cambia en el momento en el que se entera de un secreto que atormentaba a toda su familia. Sus antepasados se vieron envueltos durante la ocupación nazi con terribles consecuencias, y ante tales acontecimientos decide emprender una larga lucha para conocer la verdad





Ida (2014)

*Audio Polish + Español Castellano



General
Format : Matroska
Format version : Version 2
File size : 1.37 GiB
Duration : 1h 18mn
Overall bit rate : 2 500 Kbps
Encoded date : UTC 2014-07-09 17:19:44
Writing application : mkvmerge v6.5.0 ('Isn't she lovely') built on Oct 20 2013 12:50:05
Writing library : libebml v1.3.0 + libmatroska v1.4.1



Video
ID : 1
Format : AVC
Format/Info : Advanced Video Codec
Format profile : [email protected]
Format settings, CABAC : Yes
Format settings, ReFrames : 4 frames
Codec ID : V_MPEG4/ISO/AVC
Duration : 1h 18mn
Bit rate : 1 603 Kbps
Width : 960 pixels
Height : 720 pixels
Display aspect ratio : 4:3
Frame rate mode : Constant
Frame rate : 25.000 fps
Color space : YUV
Chroma subsampling : 4:2:0
Bit depth : 8 bits
Scan type : Progressive
Bits/(Pixel*Frame) : 0.093
Stream size : 874 MiB (62%)
Writing library : x264 core 138 r2358 9e941d1
Default : Yes
Forced : No

Audio #1
ID : 2
Format : AC-3
Format/Info : Audio Coding 3
Mode extension : CM (complete main)
Format settings, Endianness : Big
Codec ID : A_AC3
Duration : 1h 18mn
Bit rate mode : Constant
Bit rate : 448 Kbps
Channel(s) : 6 channels
Channel positions : Front: L C R, Side: L R, LFE
Sampling rate : 48.0 KHz
Bit depth : 16 bits
Compression mode : Lossy
Stream size : 252 MiB (18%)
Language : Polish
Default : Yes
Forced : No

Audio #2
ID : 3
Format : AC-3
Format/Info : Audio Coding 3
Mode extension : CM (complete main)
Format settings, Endianness : Big
Codec ID : A_AC3
Duration : 1h 18mn
Bit rate mode : Constant
Bit rate : 448 Kbps
Channel(s) : 6 channels
Channel positions : Front: L C R, Side: L R, LFE
Sampling rate : 48.0 KHz
Bit depth : 16 bits
Compression mode : Lossy
Stream size : 252 MiB (18%)
Language : Spanish
Default : No
Forced : No

















Files:

  • Ida.2014.DVDRip.720p.x264.AC3.[Dual Audio].[Polish + Español Castellano].-CALLIXTUS.mkv (1.4 GB)
  • Read Me! - ¡Leerme! - CALLIXTUS.nfo (67.6 KB)

There are currently no comments. Feel free to leave one :)

Code:

  • udp://open.demonii.com:1337/announce
  • udp://tracker.token.ro:80/announce
  • udp://pow7.com:80/announce
  • udp://tracker.publicbt.com:80/announce
  • udp://tracker.openbittorrent.com:80/announce
  • udp://tracker.istole.it:80/announce
  • http://tracker.ex.ua/announce
  • udp://11.rarbg.com/announce
  • udp://10.rarbg.com/announce
  • udp://tracker.prq.to/announce
SitemapFBReader Premium – Book Reader v2.9 APK Cracked | The Good Doctor S02e07 | The Hollow Point (2016) DiskCatalogMaker 6.8.1 | Turfmaster Gartenanhänger Geräteanhänger a. galvanisiertem Stahl Nutzlast 450 kg | Fournitures médicales