S.W.A.T. (SWAT) S02E12 Los Huesos 1080p 5.1 - 2.0 x264 Phun Psyz

  • Category TV
  • Type HD
  • Language English
  • Total size 786.1 MB
  • Uploaded By PhunPsyz
  • Downloads 205
  • Last checked 10 hours ago
  • Date uploaded 18 hours ago
  • Seeders 37
  • Leechers 16

Infohash : 9C4FDF993C5633A0E678F3ADDB58C2493A05D7F6

www.imdb.com/title/tt9378468/?ref_=ttep_ep12

Jessica and Chris go undercover in Mexico to save a Mexican federal agent that's been abducted by a gang. Hondo's mother worries about him when he starts renovating her house.

Source: AJP69 (Amzn)







Format : MPEG-4
Format profile : Base Media / Version 2
Codec ID : mp42 (isom/iso2/avc1/mp41)
File size : 786 MiB
Duration : 43 min 7 s
Overall bit rate mode : Variable
Overall bit rate : 2 549 kb/s

Video
ID : 1
Format : AVC
Format/Info : Advanced Video Codec
Format profile : [email protected]
Format settings : CABAC / 1 Ref Frames
Format settings, CABAC : Yes
Format settings, ReFrames : 1 frame
Codec ID : avc1
Codec ID/Info : Advanced Video Coding
Duration : 43 min 7 s
Bit rate : 2 063 kb/s
Width : 1 920 pixels
Height : 1 080 pixels
Display aspect ratio : 16:9
Frame rate mode : Constant
Frame rate : 24.000 FPS
Color space : YUV
Chroma subsampling : 4:2:0
Bit depth : 8 bits
Scan type : Progressive
Bits/(Pixel*Frame) : 0.041
Stream size : 636 MiB (81%)
Writing library : x264 core 155 r2901 7d0ff22

Audio #1
ID : 2
Format : AC-3
Format/Info : Audio Coding 3
Commercial name : Dolby Digital
Codec ID : ac-3
Duration : 43 min 7 s
Bit rate mode : Constant
Bit rate : 320 kb/s
Channel(s) : 6 channels
Channel layout : L R C LFE Ls Rs
Sampling rate : 48.0 kHz
Frame rate : 31.250 FPS (1536 SPF)
Bit depth : 16 bits
Compression mode : Lossy
Stream size : 98.7 MiB (13%)
Title : Surround / Surround
Language : English

Audio #2
ID : 3
Format : AAC LC
Format/Info : Advanced Audio Codec Low Complexity
Codec ID : mp4a-40-2
Duration : 43 min 7 s
Bit rate mode : Variable
Bit rate : 159 kb/s
Channel(s) : 2 channels
Channel layout : L R
Sampling rate : 48.0 kHz
Frame rate : 46.875 FPS (1024 SPF)
Compression mode : Lossy
Stream size : 49.2 MiB (6%)
Title : Stereo / Stereo
Language : English

Text
Language : English
Default : Yes
Forced : No
Language : English
Default : No
Forced : No

Files:

  • S.W.A.T. S02E12 Los Huesos 1080p 5.1 - 2.0 x264 Phun Psyz.mp4 (786.1 MB)

There are currently no comments. Feel free to leave one :)

Code:

  • udp://tracker.coppersurfer.tk:6969/announce
  • udp://tracker.opentrackr.org:1337/announce
  • udp://thetracker.org:80/announce
  • udp://tracker.pirateparty.gr:6969/announce
  • udp://tracker.internetwarriors.net:1337/announce
  • udp://tracker.torrent.eu.org:451/announce
  • udp://tracker.tiny-vps.com:6969/announce
  • udp://explodie.org:6969/announce
  • http://explodie.org:6969/announce
  • http://open.acgtracker.com:1096/announce
  • udp://182.176.139.129:6969/announce
  • udp://tracker.uw0.xyz:6969/announce
SitemapUnity Asset Character Respawn FX v1.1 x64 | 1Tap Cleaner Pro v3.21 APK Full Version | Joseph Bennett Xem chương | 隐私政策 | Along With the Gods - The Last 49 Days Legendado Ação / Drama / Fantasia 2018 1080p / 720p / Bluray / Full HD / HD Filmes Torrent