Dawn.2018.720p.AMZN.WEB-DL.DDP2.0.H264.LLG

  • Category Movies
  • Type HD
  • Language English
  • Total size 1.4 GB
  • Uploaded By LifeLongg
  • Downloads 372
  • Last checked 2 hours ago
  • Date uploaded 21 hours ago
  • Seeders 29
  • Leechers 33

A Prayer Before Dawn

DramaActionCrime

Based on the true life experience of Billy Moore who survived his Thai prison ordeal by becoming a Muay Thai boxing champion.

Infohash : 6F05982980046870ACB2C3721CEBA0C606783589

Quote:




******************************Thumbnail:**********************



******************************Screenshots:********************

Screenshot 1

Screenshot 2

Screenshot 3

Screenshot 4

Screenshot 5

Screenshot 6

Screenshot 7

Screenshot 8

Screenshot 9

Screenshot 0

******************************************************

Dawn.2018.720p.AMZN.WEB-DL.DDP2.0.H264.LLG.mp4
Format : MPEG-4
Format profile : Base Media
Codec ID : isom (isom/iso2/avc1/mp41)
File size : 1.39 GiB
Duration : 1 h 57 min
Overall bit rate mode : Variable
Overall bit rate : 1 703 kb/s


Video
ID : 1
Format : AVC
Format/Info : Advanced Video Codec
Format profile : [email protected]
Format settings : CABAC / 1 Ref Frames
Format settings, CABAC : Yes
Format settings, RefFrames : 1 frame
Codec ID : avc1
Codec ID/Info : Advanced Video Coding
Duration : 1 h 57 min
Bit rate mode : Variable
Bit rate : 1 508 kb/s
Maximum bit rate : 4 500 kb/s
Width : 1 280 pixels
Height : 720 pixels
Display aspect ratio : 16:9
Frame rate mode : Constant
Frame rate : 23.976 (23976/1000) FPS
Color space : YUV
Chroma subsampling : 4:2:0
Bit depth : 8 bits
Scan type : Progressive
Bits/(Pixel*Frame) : 0.068
Stream size : 1.23 GiB (89%)

Audio
ID : 2
Format : AC-3
Format/Info : Audio Coding 3
Commercial name : Dolby Digital
Codec ID : ac-3
Duration : 1 h 57 min
Bit rate mode : Constant
Bit rate : 192 kb/s
Channel(s) : 2 channels
Channel layout : L R
Sampling rate : 48.0 kHz
Frame rate : 31.250 FPS (1536 SPF)
Bit depth : 16 bits
Compression mode : Lossy
Stream size : 161 MiB (11%)
Title : English
Language : English
Service kind : Complete Main
Default : Yes
Alternate group : 1



******************************************************


Files:

Dawn.2018.720p.AMZN.WEB-DL.DDP2.0.H264.LLG
  • SAMPLE.ts (28.7 MB)
  • Dawn.2018.720p.AMZN.WEB-DL.DDP2.0.H264.LLG.mp4 (1.4 GB)

There are currently no comments. Feel free to leave one :)

Code:

  • udp://tracker.openbittorrent.com:80/announce
  • udp://tracker.opentrackr.org:1337/announce
  • udp://tracker.coppersurfer.tk:6969/announce
  • udp://tracker.pirateparty.gr:6969/announce
  • udp://tracker.coppersurfer.tk:6969/announce
  • udp://tracker.leechers-paradise.org:6969/announce
  • udp://eddie4.nl:6969/announce
  • udp://tracker.tiny-vps.com:6969/announce
  • udp://9.rarbg.me:2770/announce
  • udp://9.rarbg.to:2770/announce
  • udp://public.popcorn-tracker.org:6969/announce
  • udp://open.stealth.si:80/announce
  • udp://tracker.vanitycore.co:6969/announce
  • udp://tracker.opentrackr.org:1337/announce
  • udp://bt.firebit.co.uk:6969/announce
SitemapThe Avengers | Email a Friend | 31XX / 32XX / 33XX / 34XX / 35XX/ 36XX The Lizzie Borden Chronicles | Home Decor | Wireless Bluetooth 3.5mm AUX Audio Stereo Music Home Car Receiver Adapter